InAPPropriate Comedy 2013 DVDRip XviD-EXViD


Download - InAPPropriate Comedy 2013 DVDRip XviD-EXViD.zip
 kbps


InAPPropriate Comedy 2013 DVDRip XviD-EXViD Torrent Download
 kbps
InAPPropriate Comedy 2013 DVDRip XviD-EXViD

InAPPropriate Comedy 2013 DVDRip XviD-EXViD | 699.74 MB
File: exvid-inappcom.avi
Size: 733714432 bytes (699.72 MiB), duration: 01:23:56, avg.bitrate: 1166 kb/s
Audio: mp3, 48000 Hz, stereo, 160 kb/s
Video: mpeg4, yuv420p, 624x352, 25.00 fps(r)

Story:In this comedy film, a computer tablet full of the world's most hilariously offensive apps breaks through the borders of political correctness, stirring up cultural anarchy.
Language: English
Genre: Comedy
iMDB iNFO


Release Name: InAPPropriate Comedy (2013)
Release Year: 2013
Movie Rating: 2.5
Director: Vince Offer
Cast: Rob Schneider / Michelle Rodriguez / Adrien Brody / Lindsay Lohan / Ari Shaffir / Dante / Allen Abrams / Anna Akana / Harvey J. Alperin / Azur-De / Christian Beasley / Shayla Beesley / Ben Begley / Daniel Berson / Dave Birr
InAPPropriate Comedy 2013 DVDRip XviD-EXViD

NFo
EXVID
Filled the Archives
With:
E240
SP               (C) 2009
InAPPropriate.Comedy.2013.DVDRip.XviD-EXViD
EXViD aims to iNTERNAL those releases which have been lost in the archives.
EXViD aims to PRE non-internal releases which have poor sources and are likely skipped by others.
http://www.imdb.com/title/tt1754811/
Subtitles: NL
Date: 2013.09
Director: Vince Offer
Genres: Comedy
Plot:
In this comedy film, a computer tablet full of the world's most hilariously offensive apps
breaks through the borders of political correctness, stirring up cultural anarchy.
Cast:
Rob Schneider  ... J.D. / Psychologist
Michelle Rodriguez  ... Harriet
Adrien Brody  ... Flirty Harry
Lindsay Lohan  ... Marilyn
Ari Shaffir  ... The Amazing Racist
Dante  ... The Racist Assistant / Sushi Mama Porn - all voices
Allen Abrams  ... White Swan
Anna Akana  ... Student
Harvey J. Alperin  ... Shopper
Azur-De  ... Passerby
Christian Beasley  ... Black Swan
Shayla Beesley  ... Girlfriend
Ben Begley  ... Bartender
Daniel Berson  ... Jack
Dave Birr  ... Black Swan
Stats:
Format                           : AVI
Format/Info                      : Audio Video Interleave
File size                        : 700 MiB
Duration                         : 1h 23mn
Overall bit rate                 : 1 166 Kbps
Writing application              : VirtualDubMod 1.5.10.2 (build 2540/release)
Writing library                  : VirtualDubMod build 2540/release
Video
ID                               : 0
Format                           : MPEG-4 Visual
Format profile                   : Advanced Simple@L5
Format settings, BVOP            : Yes
Format settings, QPel            : No
Format settings, GMC             : No warppoints
Format settings, Matrix          : Default (H.263)
Muxing mode                      : Packed bitstream
Codec ID                         : XVID
Codec ID/Hint                    : XviD
Duration                         : 1h 23mn
Bit rate                         : 1 027 Kbps
Width                            : 624 pixels
Height                           : 352 pixels
Display aspect ratio             : 16:9
Frame rate                       : 25.000 fps
Color space                      : YUV
Chroma subsampling               : 4:2:0
Bit depth                        : 8 bits
Scan type                        : Progressive
Bits/(Pixel*Frame)               : 0.187
Stream size                      : 617 MiB (88%)
Writing library                  : XviD 64
Audio
ID                               : 1
Format                           : MPEG Audio
Format version                   : Version 1
Format profile                   : Layer 3
Mode                             : Joint stereo
Mode extension                   : MS Stereo
Codec ID                         : 55
Codec ID/Hint                    : MP3
Duration                         : 1h 23mn
Bit rate mode                    : Variable
Bit rate                         : 128 Kbps
Channel(s)                       : 2 channels
Sampling rate                    : 48.0 KHz
Stream size                      : 75.5 MiB (11%)
Alignment                        : Aligned on interleaves
Interleave, duration             : 24 ms (0.60 video frame)
Interleave, preload duration     : 262 ms
Writing library                  : LAME3.99r
Encoding settings                : -m j -V 4 -q 2 -lowpass 17 --abr 128
Release notes:
enjoy!
Looking for:
75TB+ Archives
DUTCH/FLEMiSH Archives
Greets: CRBS EPiSODE FiCO FLS iLS KLASSiGER LiPSYNC MADE NODLABS RUNNER SPRiNTER
ASCII DONE BY XX^NFO 2oo9

InAPPropriate Comedy 2013 DVDRip XviD-EXViD


InAPPropriate Comedy 2013 DVDRip XviD-EXViD

Download this in Super Speed & Resume Support With Premium account
InAPPropriate_Comedy_2013_DVDRip_XviD_EXViD.rar.html









Left Click On the Above Links Do not Right Click and Copy Links
Rapidgator.net

Tags: InAPPropriate, Comedy, DVDRip, EXViD

Hello Respective Visitor!

Please Login or Create a FREE Account to gain accesss to hidden contents.